osu file format v14

[General]
AudioFilename: xi - ANiMA (MEGAtive Shinzo-).mp3
AudioLeadIn: 1500
PreviewTime: 237796
Countdown: 0
SampleSet: Normal
StackLeniency: 0.7
Mode: 3
LetterboxInBreaks: 0
WidescreenStoryboard: 0

[Editor]
DistanceSpacing: 1.2
BeatDivisor: 4
GridSize: 4
TimelineZoom: 2.8

[Metadata]
Title:ANiMA
TitleUnicode:ANiMA
Artist:xi
ArtistUnicode:xi
Creator:Shinzo-
Version:7K Easy
Source:
Tags:Full ver Deemo Rayark Deemo's collection Vol. 2 Yusuke Ishiwata Piano Inc. Soul Alice Masked Lady MEGAtive Takane6
BeatmapID:871031
BeatmapSetID:398966

[Difficulty]
HPDrainRate:6
CircleSize:7
OverallDifficulty:7
ApproachRate:5
SliderMultiplier:1.4
SliderTickRate:1

[Events]
//Background and Video events
0,0,"BG ANiMA (Brian_Ex Shinzo-).jpg",0,0
//Break Periods
//Storyboard Layer 0 (Background)
//Storyboard Layer 1 (Fail)
//Storyboard Layer 2 (Pass)
//Storyboard Layer 3 (Foreground)
//Storyboard Sound Samples

[TimingPoints]
576,326.975476839237,4,1,0,1,1,0
238614,-100,4,1,0,1,0,1
247769,-100,4,1,0,1,0,0
249077,-100,4,1,0,1,0,1
259540,-100,4,1,0,1,0,0
262156,-100,4,1,0,1,0,1
262238,-100,4,1,0,1,0,0

[HitObjects]
329,192,576,5,0,0:0:0:0:
475,192,3845,1,0,0:0:0:0:
329,192,4499,1,0,0:0:0:0:
182,192,5153,1,0,0:0:0:0:
475,192,5807,1,0,0:0:0:0:
329,192,6461,1,0,0:0:0:0:
402,192,7115,1,0,0:0:0:0:
256,192,7769,1,0,0:0:0:0:
329,192,8423,1,0,0:0:0:0:
36,192,8423,1,0,0:0:0:0:
182,192,9731,1,0,0:0:0:0:
475,192,9731,1,0,0:0:0:0:
109,192,10385,1,0,0:0:0:0:
256,192,10712,1,0,0:0:0:0:
402,192,11039,1,0,0:0:0:0:
36,192,11039,1,0,0:0:0:0:
256,192,11693,1,0,0:0:0:0:
329,192,12347,1,0,0:0:0:0:
475,192,12347,1,0,0:0:0:0:
402,192,13655,1,0,0:0:0:0:
256,192,13655,1,0,0:0:0:0:
36,192,14308,1,0,0:0:0:0:
256,192,14962,1,0,0:0:0:0:
329,192,15616,1,0,0:0:0:0:
402,192,16270,1,0,0:0:0:0:
182,192,16270,1,0,0:0:0:0:
36,192,16924,1,0,0:0:0:0:
109,192,17578,1,0,0:0:0:0:
329,192,17578,1,0,0:0:0:0:
36,192,18232,1,0,0:0:0:0:
109,192,18450,1,0,0:0:0:0:
475,192,18668,1,0,0:0:0:0:
402,192,18886,1,0,0:0:0:0:
256,192,18886,1,0,0:0:0:0:
182,192,19540,1,0,0:0:0:0:
475,192,20194,1,0,0:0:0:0:
36,192,20194,1,0,0:0:0:0:
256,192,20848,1,0,0:0:0:0:
36,192,21175,128,0,21502:0:0:0:0:
329,192,21502,1,0,0:0:0:0:
475,192,21502,128,0,22810:0:0:0:0:
182,192,22810,128,0,24118:0:0:0:0:
329,192,24118,128,0,25426:0:0:0:0:
475,192,25753,1,0,0:0:0:0:
329,192,26080,1,0,0:0:0:0:
36,192,26407,1,0,0:0:0:0:
182,192,26734,128,0,28041:0:0:0:0:
329,192,28041,128,0,28695:0:0:0:0:
475,192,28695,128,0,29349:0:0:0:0:
36,192,29349,128,0,30657:0:0:0:0:
402,192,30984,1,0,0:0:0:0:
256,192,31311,1,0,0:0:0:0:
109,192,31638,1,0,0:0:0:0:
256,192,31965,128,0,32946:0:0:0:0:
475,192,31965,1,0,0:0:0:0:
36,192,32946,1,0,0:0:0:0:
329,192,33273,128,0,34254:0:0:0:0:
182,192,34254,1,0,0:0:0:0:
36,192,34581,128,0,35235:0:0:0:0:
329,192,34581,1,0,0:0:0:0:
475,192,35235,128,0,35889:0:0:0:0:
256,192,35889,128,0,36543:0:0:0:0:
36,192,35889,1,0,0:0:0:0:
109,192,36543,1,0,0:0:0:0:
329,192,36543,128,0,37197:0:0:0:0:
402,192,37197,128,0,38341:0:0:0:0:
182,192,37197,1,0,0:0:0:0:
36,192,38341,1,0,0:0:0:0:
256,192,38505,1,0,0:0:0:0:
36,192,38832,1,0,0:0:0:0:
182,192,39159,1,0,0:0:0:0:
475,192,39486,128,0,39813:0:0:0:0:
36,192,39813,1,0,0:0:0:0:
256,192,39813,1,0,0:0:0:0:
109,192,40303,1,0,0:0:0:0:
402,192,40467,1,0,0:0:0:0:
475,192,40957,1,0,0:0:0:0:
36,192,41120,1,0,0:0:0:0:
182,192,41120,1,0,0:0:0:0:
256,192,41447,1,0,0:0:0:0:
475,192,41774,128,0,42101:0:0:0:0:
329,192,41774,1,0,0:0:0:0:
36,192,42101,128,0,42428:0:0:0:0:
256,192,42428,1,0,0:0:0:0:
475,192,43082,128,0,43409:0:0:0:0:
36,192,43409,128,0,43736:0:0:0:0:
475,192,43736,1,0,0:0:0:0:
182,192,43736,1,0,0:0:0:0:
109,192,44227,1,0,0:0:0:0:
402,192,44227,1,0,0:0:0:0:
475,192,44717,1,0,0:0:0:0:
329,192,44717,1,0,0:0:0:0:
109,192,45208,1,0,0:0:0:0:
402,192,45208,1,0,0:0:0:0:
475,192,45698,128,0,46025:0:0:0:0:
36,192,46025,128,0,46352:0:0:0:0:
182,192,46352,1,0,0:0:0:0:
329,192,46843,1,0,0:0:0:0:
109,192,46843,1,0,0:0:0:0:
475,192,47333,1,0,0:0:0:0:
36,192,47333,1,0,0:0:0:0:
109,192,47823,1,0,0:0:0:0:
402,192,47823,1,0,0:0:0:0:
256,192,47987,1,0,0:0:0:0:
256,192,48314,128,0,48641:0:0:0:0:
36,192,48641,128,0,48968:0:0:0:0:
475,192,48641,1,0,0:0:0:0:
182,192,48968,1,0,0:0:0:0:
329,192,48968,1,0,0:0:0:0:
36,192,49458,1,0,0:0:0:0:
256,192,49458,1,0,0:0:0:0:
475,192,49949,1,0,0:0:0:0:
256,192,49949,1,0,0:0:0:0:
36,192,50439,1,0,0:0:0:0:
182,192,50439,1,0,0:0:0:0:
475,192,50930,128,0,51257:0:0:0:0:
36,192,51257,128,0,51584:0:0:0:0:
329,192,51584,1,0,0:0:0:0:
475,192,51584,1,0,0:0:0:0:
109,192,52074,1,0,0:0:0:0:
402,192,52074,1,0,0:0:0:0:
182,192,52565,1,0,0:0:0:0:
475,192,52565,1,0,0:0:0:0:
329,192,52892,1,0,0:0:0:0:
36,192,52892,1,0,0:0:0:0:
182,192,53055,128,0,53219:0:0:0:0:
402,192,53219,1,0,0:0:0:0:
475,192,53546,1,0,0:0:0:0:
36,192,53546,128,0,54199:0:0:0:0:
182,192,54199,1,0,0:0:0:0:
475,192,54199,1,0,0:0:0:0:
256,192,54853,1,0,0:0:0:0:
475,192,55507,1,0,0:0:0:0:
182,192,55834,1,0,0:0:0:0:
329,192,56161,1,0,0:0:0:0:
109,192,56815,1,0,0:0:0:0:
182,192,57469,1,0,0:0:0:0:
36,192,57796,1,0,0:0:0:0:
36,192,58123,1,0,0:0:0:0:
182,192,58450,1,0,0:0:0:0:
329,192,58777,1,0,0:0:0:0:
36,192,59104,128,0,59431:0:0:0:0:
475,192,59431,1,0,0:0:0:0:
329,192,59431,128,0,59758:0:0:0:0:
256,192,59758,128,0,60085:0:0:0:0:
182,192,60085,128,0,60412:0:0:0:0:
36,192,60412,128,0,60739:0:0:0:0:
256,192,60739,1,0,0:0:0:0:
109,192,60739,128,0,61066:0:0:0:0:
329,192,61066,128,0,61393:0:0:0:0:
402,192,61393,128,0,61720:0:0:0:0:
182,192,61720,128,0,62047:0:0:0:0:
329,192,62047,1,0,0:0:0:0:
475,192,62047,1,0,0:0:0:0:
256,192,62701,1,0,0:0:0:0:
109,192,62701,1,0,0:0:0:0:
475,192,63028,128,0,63355:0:0:0:0:
36,192,63355,1,0,0:0:0:0:
182,192,63355,1,0,0:0:0:0:
256,192,63682,1,0,0:0:0:0:
475,192,64009,128,0,64663:0:0:0:0:
109,192,64009,1,0,0:0:0:0:
182,192,64336,1,0,0:0:0:0:
36,192,64663,1,0,0:0:0:0:
256,192,64663,1,0,0:0:0:0:
402,192,64990,1,0,0:0:0:0:
256,192,65317,1,0,0:0:0:0:
109,192,65644,1,0,0:0:0:0:
329,192,65971,128,0,66298:0:0:0:0:
475,192,66298,128,0,66625:0:0:0:0:
36,192,66625,1,0,0:0:0:0:
36,192,66952,1,0,0:0:0:0:
329,192,67278,1,0,0:0:0:0:
182,192,67605,128,0,67932:0:0:0:0:
402,192,67932,128,0,68259:0:0:0:0:
329,192,68423,1,0,0:0:0:0:
256,192,68586,128,0,68913:0:0:0:0:
182,192,69077,1,0,0:0:0:0:
109,192,69240,128,0,69567:0:0:0:0:
329,192,69567,1,0,0:0:0:0:
329,192,69894,1,0,0:0:0:0:
36,192,69894,1,0,0:0:0:0:
475,192,70221,1,0,0:0:0:0:
329,192,70548,1,0,0:0:0:0:
182,192,70875,1,0,0:0:0:0:
36,192,71202,1,0,0:0:0:0:
475,192,71529,128,0,71856:0:0:0:0:
256,192,71856,1,0,0:0:0:0:
36,192,72183,1,0,0:0:0:0:
475,192,72510,1,0,0:0:0:0:
182,192,72510,1,0,0:0:0:0:
256,192,72837,1,0,0:0:0:0:
36,192,73164,1,0,0:0:0:0:
329,192,73164,1,0,0:0:0:0:
402,192,73491,1,0,0:0:0:0:
109,192,73818,1,0,0:0:0:0:
475,192,73818,1,0,0:0:0:0:
329,192,74145,1,0,0:0:0:0:
36,192,74472,1,0,0:0:0:0:
182,192,74472,1,0,0:0:0:0:
182,192,74799,1,0,0:0:0:0:
329,192,75126,1,0,0:0:0:0:
109,192,75126,128,0,75780:0:0:0:0:
402,192,75780,128,0,76434:0:0:0:0:
36,192,76434,1,0,0:0:0:0:
475,192,76434,128,0,76761:0:0:0:0:
182,192,76761,128,0,77088:0:0:0:0:
402,192,77088,128,0,77415:0:0:0:0:
109,192,77415,128,0,77742:0:0:0:0:
475,192,77742,1,0,0:0:0:0:
36,192,77742,128,0,78396:0:0:0:0:
329,192,78396,128,0,78886:0:0:0:0:
182,192,79050,1,0,0:0:0:0:
475,192,79050,128,0,79377:0:0:0:0:
109,192,79377,128,0,79704:0:0:0:0:
329,192,79704,128,0,80031:0:0:0:0:
256,192,80031,128,0,80358:0:0:0:0:
402,192,80358,1,0,0:0:0:0:
182,192,80358,128,0,81011:0:0:0:0:
475,192,81011,128,0,81502:0:0:0:0:
36,192,81011,1,0,0:0:0:0:
36,192,81665,1,0,0:0:0:0:
402,192,81665,128,0,81992:0:0:0:0:
109,192,81992,128,0,82319:0:0:0:0:
329,192,82319,128,0,82646:0:0:0:0:
182,192,82646,128,0,82973:0:0:0:0:
36,192,82973,1,0,0:0:0:0:
475,192,82973,128,0,83300:0:0:0:0:
329,192,83300,128,0,83627:0:0:0:0:
182,192,83627,128,0,83954:0:0:0:0:
475,192,83954,128,0,84281:0:0:0:0:
109,192,84281,128,0,84608:0:0:0:0:
256,192,84281,1,0,0:0:0:0:
402,192,84608,128,0,84935:0:0:0:0:
256,192,84935,128,0,85262:0:0:0:0:
36,192,85589,1,0,0:0:0:0:
182,192,85589,1,0,0:0:0:0:
109,192,85916,128,0,86243:0:0:0:0:
475,192,86243,1,0,0:0:0:0:
182,192,86570,128,0,86897:0:0:0:0:
475,192,86897,1,0,0:0:0:0:
256,192,87224,128,0,87551:0:0:0:0:
36,192,87551,1,0,0:0:0:0:
329,192,87878,128,0,88205:0:0:0:0:
36,192,88205,1,0,0:0:0:0:
182,192,88205,1,0,0:0:0:0:
402,192,88532,128,0,88859:0:0:0:0:
36,192,88859,1,0,0:0:0:0:
182,192,88859,1,0,0:0:0:0:
475,192,89186,128,0,89513:0:0:0:0:
402,192,89513,1,0,0:0:0:0:
256,192,89513,128,0,89840:0:0:0:0:
182,192,89840,128,0,90167:0:0:0:0:
109,192,90167,128,0,90494:0:0:0:0:
402,192,90167,1,0,0:0:0:0:
256,192,90494,1,0,0:0:0:0:
36,192,90821,1,0,0:0:0:0:
475,192,90821,1,0,0:0:0:0:
36,192,93273,1,0,0:0:0:0:
256,192,93437,1,0,0:0:0:0:
256,192,96379,128,0,96706:0:0:0:0:
475,192,96706,1,0,0:0:0:0:
256,192,97687,128,0,98014:0:0:0:0:
36,192,98014,1,0,0:0:0:0:
256,192,98995,128,0,99322:0:0:0:0:
329,192,99322,1,0,0:0:0:0:
475,192,99649,1,0,0:0:0:0:
36,192,99976,128,0,101284:0:0:0:0:
475,192,101284,1,0,0:0:0:0:
329,192,101284,128,0,103900:0:0:0:0:
36,192,103736,1,0,0:0:0:0:
182,192,103900,1,0,0:0:0:0:
475,192,103900,128,0,106516:0:0:0:0:
36,192,106025,1,0,0:0:0:0:
182,192,106189,1,0,0:0:0:0:
256,192,106516,128,0,107170:0:0:0:0:
109,192,107170,1,0,0:0:0:0:
402,192,107170,1,0,0:0:0:0:
329,192,107823,128,0,108477:0:0:0:0:
36,192,108477,1,0,0:0:0:0:
475,192,108477,1,0,0:0:0:0:
182,192,109131,128,0,109785:0:0:0:0:
475,192,109785,1,0,0:0:0:0:
36,192,109785,1,0,0:0:0:0:
256,192,110112,1,0,0:0:0:0:
329,192,110439,1,0,0:0:0:0:
256,192,110766,1,0,0:0:0:0:
182,192,111093,1,0,0:0:0:0:
256,192,111420,1,0,0:0:0:0:
475,192,111747,1,0,0:0:0:0:
36,192,111747,1,0,0:0:0:0:
329,192,111911,1,0,0:0:0:0:
329,192,112401,1,0,0:0:0:0:
36,192,112401,1,0,0:0:0:0:
182,192,112565,1,0,0:0:0:0:
182,192,113055,1,0,0:0:0:0:
475,192,113055,1,0,0:0:0:0:
329,192,113219,1,0,0:0:0:0:
475,192,113709,1,0,0:0:0:0:
329,192,113709,128,0,114036:0:0:0:0:
36,192,114036,128,0,114363:0:0:0:0:
402,192,114363,1,0,0:0:0:0:
109,192,114363,1,0,0:0:0:0:
256,192,114526,1,0,0:0:0:0:
256,192,115017,1,0,0:0:0:0:
36,192,115017,1,0,0:0:0:0:
402,192,115180,1,0,0:0:0:0:
109,192,115671,1,0,0:0:0:0:
475,192,115671,1,0,0:0:0:0:
256,192,115834,1,0,0:0:0:0:
36,192,116325,1,0,0:0:0:0:
182,192,116325,128,0,116652:0:0:0:0:
329,192,116652,1,0,0:0:0:0:
109,192,116979,1,0,0:0:0:0:
475,192,117306,128,0,119595:0:0:0:0:
256,192,119595,128,0,120902:0:0:0:0:
36,192,120902,128,0,122210:0:0:0:0:
109,192,124826,1,0,0:0:0:0:
402,192,124826,1,0,0:0:0:0:
256,192,126134,1,0,0:0:0:0:
329,192,127442,1,0,0:0:0:0:
36,192,128096,1,0,0:0:0:0:
475,192,129077,1,0,0:0:0:0:
329,192,129404,1,0,0:0:0:0:
182,192,129731,1,0,0:0:0:0:
256,192,130058,1,0,0:0:0:0:
475,192,130058,1,0,0:0:0:0:
329,192,131366,1,0,0:0:0:0:
109,192,131366,1,0,0:0:0:0:
109,192,132020,1,0,0:0:0:0:
402,192,132020,1,0,0:0:0:0:
402,192,132674,1,0,0:0:0:0:
182,192,132674,1,0,0:0:0:0:
256,192,133328,1,0,0:0:0:0:
475,192,134308,1,0,0:0:0:0:
256,192,134635,1,0,0:0:0:0:
36,192,134962,1,0,0:0:0:0:
256,192,135289,1,0,0:0:0:0:
475,192,135289,1,0,0:0:0:0:
36,192,136107,1,0,0:0:0:0:
182,192,136270,1,0,0:0:0:0:
329,192,136434,1,0,0:0:0:0:
475,192,136597,1,0,0:0:0:0:
36,192,136597,1,0,0:0:0:0:
182,192,137415,1,0,0:0:0:0:
36,192,137578,1,0,0:0:0:0:
475,192,137742,1,0,0:0:0:0:
329,192,137905,1,0,0:0:0:0:
182,192,137905,1,0,0:0:0:0:
402,192,138559,1,0,0:0:0:0:
475,192,139213,1,0,0:0:0:0:
36,192,139867,1,0,0:0:0:0:
109,192,140521,1,0,0:0:0:0:
402,192,140521,1,0,0:0:0:0:
256,192,141175,1,0,0:0:0:0:
329,192,141829,1,0,0:0:0:0:
36,192,141829,1,0,0:0:0:0:
182,192,142646,1,0,0:0:0:0:
329,192,142810,1,0,0:0:0:0:
475,192,142973,1,0,0:0:0:0:
36,192,143137,1,0,0:0:0:0:
256,192,143137,1,0,0:0:0:0:
256,192,144445,128,0,145753:0:0:0:0:
36,192,145099,128,0,145753:0:0:0:0:
329,192,145753,1,0,0:0:0:0:
475,192,145753,128,0,147061:0:0:0:0:
402,192,147061,128,0,148368:0:0:0:0:
36,192,148368,128,0,149676:0:0:0:0:
475,192,150003,1,0,0:0:0:0:
329,192,150330,1,0,0:0:0:0:
182,192,150657,1,0,0:0:0:0:
36,192,150984,128,0,152292:0:0:0:0:
329,192,152292,128,0,152946:0:0:0:0:
475,192,152946,128,0,153600:0:0:0:0:
182,192,153600,128,0,154908:0:0:0:0:
402,192,155235,1,0,0:0:0:0:
256,192,155562,1,0,0:0:0:0:
109,192,155889,1,0,0:0:0:0:
475,192,156216,1,0,0:0:0:0:
256,192,156216,1,0,0:0:0:0:
36,192,157033,1,0,0:0:0:0:
182,192,157197,1,0,0:0:0:0:
329,192,157360,1,0,0:0:0:0:
475,192,157524,1,0,0:0:0:0:
109,192,158341,1,0,0:0:0:0:
256,192,158505,1,0,0:0:0:0:
402,192,158668,1,0,0:0:0:0:
36,192,158832,1,0,0:0:0:0:
182,192,158832,1,0,0:0:0:0:
475,192,159486,1,0,0:0:0:0:
256,192,160140,1,0,0:0:0:0:
36,192,160140,1,0,0:0:0:0:
329,192,160793,1,0,0:0:0:0:
36,192,160793,1,0,0:0:0:0:
36,192,161447,1,0,0:0:0:0:
402,192,161447,1,0,0:0:0:0:
256,192,162592,1,0,0:0:0:0:
36,192,162755,1,0,0:0:0:0:
475,192,162755,1,0,0:0:0:0:
182,192,163082,1,0,0:0:0:0:
329,192,163409,1,0,0:0:0:0:
36,192,163736,128,0,164063:0:0:0:0:
329,192,164063,1,0,0:0:0:0:
475,192,164063,1,0,0:0:0:0:
36,192,164554,1,0,0:0:0:0:
182,192,164717,1,0,0:0:0:0:
329,192,164717,1,0,0:0:0:0:
36,192,165208,1,0,0:0:0:0:
182,192,165371,1,0,0:0:0:0:
402,192,165371,1,0,0:0:0:0:
402,192,165698,1,0,0:0:0:0:
475,192,166025,1,0,0:0:0:0:
36,192,166025,128,0,166352:0:0:0:0:
36,192,166679,1,0,0:0:0:0:
402,192,166679,1,0,0:0:0:0:
329,192,167333,1,0,0:0:0:0:
256,192,167987,1,0,0:0:0:0:
182,192,168314,1,0,0:0:0:0:
36,192,168641,1,0,0:0:0:0:
109,192,169295,1,0,0:0:0:0:
182,192,169949,1,0,0:0:0:0:
36,192,170276,1,0,0:0:0:0:
109,192,170603,1,0,0:0:0:0:
182,192,170930,1,0,0:0:0:0:
329,192,171257,1,0,0:0:0:0:
36,192,171584,128,0,171911:0:0:0:0:
475,192,171911,1,0,0:0:0:0:
256,192,171911,128,0,172238:0:0:0:0:
402,192,172238,128,0,172565:0:0:0:0:
182,192,172565,128,0,172892:0:0:0:0:
36,192,172892,1,0,0:0:0:0:
109,192,173219,1,0,0:0:0:0:
256,192,173219,128,0,173546:0:0:0:0:
402,192,173546,128,0,173873:0:0:0:0:
109,192,173873,128,0,174199:0:0:0:0:
182,192,174199,128,0,174526:0:0:0:0:
329,192,174526,1,0,0:0:0:0:
475,192,174526,1,0,0:0:0:0:
36,192,174853,128,0,175180:0:0:0:0:
256,192,175180,1,0,0:0:0:0:
402,192,175180,1,0,0:0:0:0:
475,192,175507,128,0,175834:0:0:0:0:
36,192,175834,1,0,0:0:0:0:
256,192,175834,128,0,176161:0:0:0:0:
329,192,176161,128,0,176488:0:0:0:0:
109,192,176488,128,0,176815:0:0:0:0:
182,192,176815,128,0,177142:0:0:0:0:
36,192,177142,1,0,0:0:0:0:
475,192,177142,1,0,0:0:0:0:
402,192,177469,128,0,177796:0:0:0:0:
256,192,177796,128,0,178123:0:0:0:0:
109,192,178123,128,0,178450:0:0:0:0:
329,192,178450,128,0,178777:0:0:0:0:
475,192,178777,128,0,179104:0:0:0:0:
36,192,179104,1,0,0:0:0:0:
36,192,179431,1,0,0:0:0:0:
329,192,179758,1,0,0:0:0:0:
182,192,180085,128,0,180412:0:0:0:0:
402,192,180412,128,0,180739:0:0:0:0:
329,192,180902,1,0,0:0:0:0:
256,192,181066,128,0,181393:0:0:0:0:
182,192,181556,1,0,0:0:0:0:
109,192,181720,128,0,182047:0:0:0:0:
329,192,182047,1,0,0:0:0:0:
329,192,182374,1,0,0:0:0:0:
36,192,182374,1,0,0:0:0:0:
475,192,182701,128,0,183028:0:0:0:0:
329,192,183028,128,0,183355:0:0:0:0:
182,192,183355,128,0,183682:0:0:0:0:
36,192,183682,1,0,0:0:0:0:
475,192,184009,128,0,184336:0:0:0:0:
256,192,184336,128,0,184663:0:0:0:0:
36,192,184663,128,0,184990:0:0:0:0:
475,192,184990,1,0,0:0:0:0:
182,192,184990,128,0,185317:0:0:0:0:
36,192,185644,1,0,0:0:0:0:
329,192,185644,128,0,185971:0:0:0:0:
182,192,186298,1,0,0:0:0:0:
475,192,186298,1,0,0:0:0:0:
109,192,186625,1,0,0:0:0:0:
329,192,186625,1,0,0:0:0:0:
36,192,186952,1,0,0:0:0:0:
182,192,186952,1,0,0:0:0:0:
475,192,187278,1,0,0:0:0:0:
329,192,187605,1,0,0:0:0:0:
109,192,187605,128,0,188259:0:0:0:0:
402,192,188259,128,0,188913:0:0:0:0:
36,192,188913,1,0,0:0:0:0:
475,192,188913,128,0,189240:0:0:0:0:
109,192,189240,128,0,189567:0:0:0:0:
329,192,189567,128,0,189894:0:0:0:0:
182,192,189894,128,0,190221:0:0:0:0:
475,192,190221,1,0,0:0:0:0:
36,192,190221,128,0,190875:0:0:0:0:
329,192,190875,128,0,191366:0:0:0:0:
182,192,191529,1,0,0:0:0:0:
475,192,191529,128,0,191856:0:0:0:0:
109,192,191856,128,0,192183:0:0:0:0:
329,192,192183,1,0,0:0:0:0:
36,192,192183,128,0,192510:0:0:0:0:
256,192,192510,1,0,0:0:0:0:
475,192,192510,128,0,192837:0:0:0:0:
402,192,192837,1,0,0:0:0:0:
182,192,192837,128,0,193491:0:0:0:0:
475,192,193491,128,0,193981:0:0:0:0:
36,192,193491,1,0,0:0:0:0:
402,192,194145,1,0,0:0:0:0:
36,192,194145,128,0,194472:0:0:0:0:
475,192,194472,128,0,194799:0:0:0:0:
182,192,194799,128,0,195126:0:0:0:0:
329,192,195126,128,0,195453:0:0:0:0:
475,192,195453,1,0,0:0:0:0:
36,192,195453,128,0,195780:0:0:0:0:
256,192,195780,1,0,0:0:0:0:
109,192,196107,128,0,196434:0:0:0:0:
329,192,196434,1,0,0:0:0:0:
182,192,196761,128,0,197088:0:0:0:0:
475,192,197088,128,0,197415:0:0:0:0:
329,192,197415,128,0,197742:0:0:0:0:
36,192,198069,1,0,0:0:0:0:
475,192,198069,1,0,0:0:0:0:
109,192,198396,128,0,198723:0:0:0:0:
475,192,198723,1,0,0:0:0:0:
182,192,199050,128,0,199377:0:0:0:0:
475,192,199377,1,0,0:0:0:0:
256,192,199704,128,0,200031:0:0:0:0:
475,192,200031,1,0,0:0:0:0:
329,192,200358,128,0,200684:0:0:0:0:
475,192,200684,1,0,0:0:0:0:
36,192,200684,1,0,0:0:0:0:
402,192,201011,128,0,201338:0:0:0:0:
36,192,201338,1,0,0:0:0:0:
182,192,201338,1,0,0:0:0:0:
475,192,201665,128,0,201992:0:0:0:0:
36,192,201992,1,0,0:0:0:0:
182,192,201992,1,0,0:0:0:0:
329,192,202319,1,0,0:0:0:0:
256,192,202646,128,0,202973:0:0:0:0:
402,192,202973,1,0,0:0:0:0:
109,192,202973,1,0,0:0:0:0:
36,192,203300,1,0,0:0:0:0:
475,192,203300,1,0,0:0:0:0:
36,192,205589,128,0,205916:0:0:0:0:
475,192,205916,1,0,0:0:0:0:
329,192,205916,1,0,0:0:0:0:
329,192,208859,128,0,209186:0:0:0:0:
36,192,209186,1,0,0:0:0:0:
182,192,209186,1,0,0:0:0:0:
475,192,210167,128,0,210494:0:0:0:0:
36,192,210494,1,0,0:0:0:0:
256,192,210494,1,0,0:0:0:0:
182,192,211475,128,0,211802:0:0:0:0:
329,192,211802,1,0,0:0:0:0:
36,192,211802,1,0,0:0:0:0:
475,192,212129,1,0,0:0:0:0:
182,192,212456,1,0,0:0:0:0:
329,192,212783,1,0,0:0:0:0:
182,192,213110,1,0,0:0:0:0:
36,192,213437,1,0,0:0:0:0:
182,192,213764,1,0,0:0:0:0:
475,192,213764,128,0,216379:0:0:0:0:
36,192,216216,1,0,0:0:0:0:
182,192,216379,1,0,0:0:0:0:
329,192,216379,128,0,218995:0:0:0:0:
36,192,218505,1,0,0:0:0:0:
182,192,218668,1,0,0:0:0:0:
36,192,218995,1,0,0:0:0:0:
182,192,219322,1,0,0:0:0:0:
329,192,219649,1,0,0:0:0:0:
475,192,219649,1,0,0:0:0:0:
475,192,220303,1,0,0:0:0:0:
329,192,220630,1,0,0:0:0:0:
182,192,220957,1,0,0:0:0:0:
36,192,220957,1,0,0:0:0:0:
402,192,221611,1,0,0:0:0:0:
256,192,221938,1,0,0:0:0:0:
109,192,222265,1,0,0:0:0:0:
402,192,222265,1,0,0:0:0:0:
36,192,222592,1,0,0:0:0:0:
475,192,222592,1,0,0:0:0:0:
182,192,222919,128,0,223573:0:0:0:0:
329,192,222919,1,0,0:0:0:0:
475,192,223246,1,0,0:0:0:0:
36,192,223573,1,0,0:0:0:0:
109,192,223900,1,0,0:0:0:0:
402,192,223900,1,0,0:0:0:0:
329,192,224227,1,0,0:0:0:0:
475,192,224227,1,0,0:0:0:0:
182,192,224390,128,0,224881:0:0:0:0:
36,192,224881,1,0,0:0:0:0:
475,192,224881,1,0,0:0:0:0:
329,192,225044,128,0,225535:0:0:0:0:
182,192,225535,1,0,0:0:0:0:
475,192,225535,1,0,0:0:0:0:
36,192,225698,128,0,226189:0:0:0:0:
182,192,226189,1,0,0:0:0:0:
329,192,226189,128,0,226516:0:0:0:0:
475,192,226516,128,0,226843:0:0:0:0:
36,192,226843,1,0,0:0:0:0:
182,192,226843,1,0,0:0:0:0:
329,192,227006,128,0,227496:0:0:0:0:
36,192,227496,1,0,0:0:0:0:
475,192,227496,1,0,0:0:0:0:
182,192,227660,128,0,228150:0:0:0:0:
36,192,228150,1,0,0:0:0:0:
329,192,228150,1,0,0:0:0:0:
475,192,228314,128,0,228804:0:0:0:0:
329,192,228804,1,0,0:0:0:0:
109,192,228804,1,0,0:0:0:0:
182,192,229131,128,0,229458:0:0:0:0:
329,192,229458,1,0,0:0:0:0:
475,192,229458,1,0,0:0:0:0:
109,192,229622,1,0,0:0:0:0:
36,192,230112,1,0,0:0:0:0:
182,192,230112,1,0,0:0:0:0:
329,192,230276,1,0,0:0:0:0:
475,192,230766,1,0,0:0:0:0:
36,192,230766,1,0,0:0:0:0:
182,192,230930,1,0,0:0:0:0:
36,192,231420,1,0,0:0:0:0:
475,192,231420,128,0,231747:0:0:0:0:
36,192,231747,128,0,232074:0:0:0:0:
329,192,232074,1,0,0:0:0:0:
475,192,232074,1,0,0:0:0:0:
182,192,232238,1,0,0:0:0:0:
36,192,232728,1,0,0:0:0:0:
182,192,232728,1,0,0:0:0:0:
329,192,232892,1,0,0:0:0:0:
36,192,233382,1,0,0:0:0:0:
182,192,233382,1,0,0:0:0:0:
329,192,233546,1,0,0:0:0:0:
36,192,234036,1,0,0:0:0:0:
182,192,234036,1,0,0:0:0:0:
329,192,234254,1,0,0:0:0:0:
475,192,234472,1,0,0:0:0:0:
36,192,234690,1,0,0:0:0:0:
182,192,235017,1,0,0:0:0:0:
475,192,235017,128,0,235998:0:0:0:0:
256,192,235998,1,0,0:0:0:0:
36,192,236161,128,0,236652:0:0:0:0:
256,192,236652,128,0,236979:0:0:0:0:
256,192,237306,1,0,0:0:0:0:
475,192,237960,128,0,238614:0:0:0:0:
36,192,238614,1,0,0:0:0:0:
182,192,238614,1,0,0:0:0:0:
329,192,238777,1,0,0:0:0:0:
475,192,238941,1,0,0:0:0:0:
109,192,239104,1,0,0:0:0:0:
256,192,239268,1,0,0:0:0:0:
402,192,239431,1,0,0:0:0:0:
256,192,239595,1,0,0:0:0:0:
109,192,239758,1,0,0:0:0:0:
475,192,240085,1,0,0:0:0:0:
182,192,240249,1,0,0:0:0:0:
329,192,240412,1,0,0:0:0:0:
475,192,240575,1,0,0:0:0:0:
36,192,240739,1,0,0:0:0:0:
182,192,240902,128,0,241229:0:0:0:0:
475,192,241393,1,0,0:0:0:0:
329,192,241556,1,0,0:0:0:0:
36,192,241883,1,0,0:0:0:0:
402,192,242101,1,0,0:0:0:0:
256,192,242319,1,0,0:0:0:0:
109,192,242537,1,0,0:0:0:0:
475,192,242537,1,0,0:0:0:0:
329,192,242864,1,0,0:0:0:0:
36,192,243191,1,0,0:0:0:0:
256,192,243191,1,0,0:0:0:0:
475,192,243518,1,0,0:0:0:0:
36,192,243845,128,0,244336:0:0:0:0:
329,192,243845,1,0,0:0:0:0:
329,192,244499,128,0,244990:0:0:0:0:
475,192,245153,128,0,245480:0:0:0:0:
329,192,245480,1,0,0:0:0:0:
36,192,245807,128,0,246134:0:0:0:0:
182,192,246134,1,0,0:0:0:0:
256,192,246461,1,0,0:0:0:0:
475,192,246461,128,0,247115:0:0:0:0:
329,192,247115,1,0,0:0:0:0:
182,192,247115,128,0,247442:0:0:0:0:
36,192,247442,128,0,247769:0:0:0:0:
182,192,247769,1,0,0:0:0:0:
402,192,247769,128,0,248423:0:0:0:0:
109,192,248096,1,0,0:0:0:0:
256,192,248423,1,0,0:0:0:0:
475,192,248423,128,0,249077:0:0:0:0:
182,192,248750,1,0,0:0:0:0:
109,192,249077,1,0,0:0:0:0:
36,192,249077,1,0,0:0:0:0:
402,192,249240,1,0,0:0:0:0:
109,192,249404,1,0,0:0:0:0:
329,192,249567,1,0,0:0:0:0:
36,192,249731,1,0,0:0:0:0:
182,192,249894,1,0,0:0:0:0:
475,192,250058,1,0,0:0:0:0:
256,192,250221,1,0,0:0:0:0:
402,192,250548,1,0,0:0:0:0:
109,192,250712,1,0,0:0:0:0:
475,192,250875,1,0,0:0:0:0:
182,192,251039,1,0,0:0:0:0:
329,192,251202,1,0,0:0:0:0:
109,192,251366,128,0,251693:0:0:0:0:
329,192,251693,1,0,0:0:0:0:
475,192,251856,1,0,0:0:0:0:
256,192,252020,1,0,0:0:0:0:
109,192,252183,1,0,0:0:0:0:
402,192,252347,1,0,0:0:0:0:
329,192,252565,1,0,0:0:0:0:
256,192,252783,1,0,0:0:0:0:
182,192,253001,1,0,0:0:0:0:
36,192,253001,1,0,0:0:0:0:
329,192,253328,1,0,0:0:0:0:
475,192,253655,1,0,0:0:0:0:
36,192,253655,1,0,0:0:0:0:
256,192,253981,1,0,0:0:0:0:
36,192,254308,128,0,254799:0:0:0:0:
402,192,254308,1,0,0:0:0:0:
329,192,254962,128,0,255453:0:0:0:0:
475,192,255616,128,0,255943:0:0:0:0:
256,192,255943,1,0,0:0:0:0:
36,192,256270,128,0,256597:0:0:0:0:
329,192,256597,128,0,256924:0:0:0:0:
182,192,256924,1,0,0:0:0:0:
475,192,256924,128,0,257578:0:0:0:0:
329,192,257578,1,0,0:0:0:0:
36,192,257578,128,0,257905:0:0:0:0:
182,192,257905,128,0,258232:0:0:0:0:
329,192,258232,128,0,258559:0:0:0:0:
475,192,258559,128,0,258886:0:0:0:0:
256,192,258886,128,0,259213:0:0:0:0:
182,192,259213,1,0,0:0:0:0:
36,192,259213,1,0,0:0:0:0:
329,192,259540,1,0,0:0:0:0:
475,192,259540,1,0,0:0:0:0:
36,192,259867,128,0,260194:0:0:0:0:
402,192,260194,1,0,0:0:0:0:
109,192,260194,1,0,0:0:0:0:
256,192,260521,128,0,260848:0:0:0:0:
182,192,260848,1,0,0:0:0:0:
36,192,260848,1,0,0:0:0:0:
475,192,261175,128,0,262156:0:0:0:0:
329,192,261175,1,0,0:0:0:0:
36,192,261502,1,0,0:0:0:0:
182,192,261829,1,0,0:0:0:0:
256,192,262156,128,0,264772:0:0:0:0:
36,192,262156,1,0,0:0:0:0:
